Descrition

Norwegian Young Amateur Couple Fuckes On Holiday

Norwegian Amateurs

A couple from Norway is having a good time on holiday. You can hear Norwegian language but it's low volume.

Scene Includes: Cowgirl/Reverse Cowgirl and Doggy Style. No cumshot.

General
Complete name : Norwegian Young Amateur Couple Fuckes On Holiday/Norwegian Young Amateur Couple Fuckes On Holiday.mp4
Format : MPEG-4
Format profile : Base Media
Codec ID : isom
File size : 19.6 MiB
Duration : 12mn 23s
Overall bit rate : 221 Kbps
Writing application : Lavf55.33.100

Video
ID : 1
Format : AVC
Format/Info : Advanced Video Codec
Format profile : [email protected]
Format settings, CABAC : No
Format settings, ReFrames : 3 frames
Codec ID : avc1
Codec ID/Info : Advanced Video Coding
Duration : 12mn 23s
Bit rate : 162 Kbps
Width : 448 pixels
Height : 336 pixels
Display aspect ratio : 4:3
Frame rate mode : Constant
Frame rate : 25.000 fps
Color space : YUV
Chroma subsampling : 4:2:0
Bit depth : 8 bits
Scan type : Progressive
Bits/(Pixel*Frame) : 0.043
Stream size : 14.3 MiB (73%)
Writing library : x264 core 118
Encoding settings : cabac=0 / ref=3 / deblock=1:0:0 / analyse=0x1:0x111 / me=hex / subme=6 / psy=1 / psy_rd=1.00:0.00 / mixed_ref=0 / me_range=16 / chroma_me=1 / trellis=1 / 8x8dct=0 / cqm=0 / deadzone=21,11 / fast_pskip=1 / chroma_qp_offset=-2 / threads=6 / sliced_threads=0 / nr=0 / decimate=1 / interlaced=0 / bluray_compat=0 / constrained_intra=0 / bframes=0 / weightp=0 / keyint=250 / keyint_min=25 / scenecut=40 / intra_refresh=0 / rc_lookahead=20 / rc=crf / mbtree=1 / crf=25.0 / qcomp=0.60 / qpmin=10 / qpmax=51 / qpstep=4 / ip_ratio=1.41 / aq=1:1.00

Audio
ID : 2
Format : AAC
Format/Info : Advanced Audio Codec
Format profile : LC
Codec ID : 40
Duration : 12mn 23s
Bit rate mode : Constant
Bit rate : 56.0 Kbps
Channel(s) : 2 channels
Channel positions : Front: L R
Sampling rate : 22.05 KHz
Compression mode : Lossy
Stream size : 4.96 MiB (25%)

Categories:
Size: 21.77 MB
Duration: 00:12:23
Video: 448×336
Codec: h264
Added On: 2017-02-19
Screens Preview
imagebam.com imagebam.com imagebam.com imagebam.com imagebam.com
Links Download
Norwegian Young Amateur Couple Fuckes On Holiday – Homemade ultima modidfica: 2017-02-20T07:07:46+00:00 da theteenhome