Descrition

Name Of The Torrent

Unknown Amateurs

Girl gets cock from behind, doggy style while wearing dress and pantyhose. He pulls out and cums over her dress.

General
Complete name : Girl With Dress And Pantyhose Getting Cock From Behind/Girl With Dress And Pantyhose Getting Cock From Behind.mp4
Format : MPEG-4
Format profile : Base Media
Codec ID : isom
File size : 73.5 MiB
Duration : 3mn 18s
Overall bit rate : 3 108 Kbps
Writing application : Lavf56.25.101

Video
ID : 1
Format : AVC
Format/Info : Advanced Video Codec
Format profile : [email protected]
Format settings, CABAC : No
Format settings, ReFrames : 3 frames
Codec ID : avc1
Codec ID/Info : Advanced Video Coding
Duration : 3mn 18s
Bit rate mode : Variable
Bit rate : 3 072 Kbps
Width : 360 pixels
Height : 640 pixels
Display aspect ratio : 0.562
Frame rate mode : Constant
Frame rate : 29.970 fps
Color space : YUV
Chroma subsampling : 4:2:0
Bit depth : 8 bits
Scan type : Progressive
Bits/(Pixel*Frame) : 0.445
Stream size : 71.8 MiB (98%)
Writing library : x264 core 122
Encoding settings : cabac=0 / ref=3 / deblock=1:0:0 / analyse=0x1:0x111 / me=hex / subme=7 / psy=1 / psy_rd=1.00:0.00 / mixed_ref=1 / me_range=16 / chroma_me=1 / trellis=1 / 8x8dct=0 / cqm=0 / deadzone=21,11 / fast_pskip=1 / chroma_qp_offset=-2 / threads=36 / sliced_threads=0 / nr=0 / decimate=1 / interlaced=0 / bluray_compat=0 / constrained_intra=0 / bframes=0 / weightp=0 / keyint=250 / keyint_min=25 / scenecut=40 / intra_refresh=0 / rc_lookahead=40 / rc=abr / mbtree=1 / bitrate=3072 / ratetol=1.0 / qcomp=0.60 / qpmin=0 / qpmax=69 / qpstep=4 / ip_ratio=1.40 / aq=1:1.00

Audio
ID : 2
Format : AAC
Format/Info : Advanced Audio Codec
Format profile : LC
Codec ID : 40
Duration : 3mn 18s
Bit rate mode : Constant
Bit rate : 62.8 Kbps
Channel(s) : 1 channel
Channel positions : Front: C
Sampling rate : 44.1 KHz
Compression mode : Lossy
Stream size : 1.49 MiB (2%)

Categories:
Size: 75.06 MB
Duration: 00:03:18
Video: 360×640
Codec: h264
Added On: 2017-02-01
Screens Preview
imagebam.com imagebam.com imagebam.com imagebam.com imagebam.com
Links Download
Girl With Dress And Pantyhose Getting Cock From Behind – Homemade ultima modidfica: 2017-02-01T14:47:50+00:00 da theteenhome