Descrition

Cute Busty Blonde Sucking Cock In Car

Anabelle Pync

Cute busty blonde giving head and stroking in a car. At the end he can't hold any longer and cums in her mouth. She don't swallow so the cum come down on the cock again. He says “Sorry baby”. Blowjob/Handjob only.

General
Complete name : Cute Busty Blonde Sucking Cock In Car/Cute Busty Blonde Sucking Cock In Car.mp4
Format : MPEG-4
Format profile : Base Media
Codec ID : isom
File size : 68.5 MiB
Duration : 3mn 0s
Overall bit rate : 3 192 Kbps
Writing application : Lavf56.25.101

Video
ID : 1
Format : AVC
Format/Info : Advanced Video Codec
Format profile : [email protected]
Format settings, CABAC : No
Format settings, ReFrames : 3 frames
Codec ID : avc1
Codec ID/Info : Advanced Video Coding
Duration : 3mn 0s
Bit rate mode : Variable
Bit rate : 3 072 Kbps
Width : 590 pixels
Height : 332 pixels
Display aspect ratio : 16:9
Frame rate mode : Constant
Frame rate : 30.000 fps
Color space : YUV
Chroma subsampling : 4:2:0
Bit depth : 8 bits
Scan type : Progressive
Bits/(Pixel*Frame) : 0.523
Stream size : 66.2 MiB (97%)
Writing library : x264 core 122
Encoding settings : cabac=0 / ref=3 / deblock=1:0:0 / analyse=0x1:0x111 / me=hex / subme=7 / psy=1 / psy_rd=1.00:0.00 / mixed_ref=1 / me_range=16 / chroma_me=1 / trellis=1 / 8x8dct=0 / cqm=0 / deadzone=21,11 / fast_pskip=1 / chroma_qp_offset=-2 / threads=36 / sliced_threads=0 / nr=0 / decimate=1 / interlaced=0 / bluray_compat=0 / constrained_intra=0 / bframes=0 / weightp=0 / keyint=250 / keyint_min=25 / scenecut=40 / intra_refresh=0 / rc_lookahead=40 / rc=abr / mbtree=1 / bitrate=3072 / ratetol=1.0 / qcomp=0.60 / qpmin=0 / qpmax=69 / qpstep=4 / ip_ratio=1.40 / aq=1:1.00

Audio
ID : 2
Format : AAC
Format/Info : Advanced Audio Codec
Format profile : LC
Codec ID : 40
Duration : 3mn 0s
Bit rate mode : Constant
Bit rate : 98.6 Kbps
Channel(s) : 2 channels
Channel positions : Front: L R
Sampling rate : 44.1 KHz
Compression mode : Lossy
Stream size : 2.12 MiB (3%)

Categories:
Size: 69.69 MB
Duration: 00:03:00
Video: 590×332
Codec: h264
Added On: 2017-02-01
Screens Preview
imagebam.com imagebam.com imagebam.com imagebam.com imagebam.com
Links Download
Cute Busty Blonde Sucking Cock In Car – Homemade ultima modidfica: 2017-02-01T12:47:50+00:00 da theteenhome

Leave a Reply

Your email address will not be published. Required fields are marked *