Descrition

Reddit user Liz_103 – Tail + Three Bad Dragon Dildos + Lactation + Fisting – 1080P

The scene starts with Liz playing with her tits, milking them with a blue dress on. Eventually she take the dress off, but leaves the panties on. She inserts a fox tail in her ass, put her panties back on again and starts playing with her pussy with a vibrator. After a little “warm-up” she takes off her panties and grabs one of the bad dragon dildos. After a while she take out the tail from her ass which leaves more room for the dildo. She plays with three different bad dragon dildos during this scene. At the end she uses her hand to fist herself to orgasm. This is the scene you need to see!

Liz_103

General
Complete name : lactation, fisting, three bad dragon dildos (re-encode).mp4
Format : MPEG-4
Format profile : Base Media / Version 2
Codec ID : mp42
File size : 768 MiB
Duration : 26mn 59s
Overall bit rate mode : Variable
Overall bit rate : 3 978 Kbps
Encoded date : UTC 2016-08-26 16:34:40
Tagged date : UTC 2016-08-26 16:34:40
Writing application : HandBrake 0.10.5 2016021100

Video
ID : 1
Format : AVC
Format/Info : Advanced Video Codec
Format profile : [email protected]
Format settings, CABAC : Yes
Format settings, ReFrames : 4 frames
Codec ID : avc1
Codec ID/Info : Advanced Video Coding
Duration : 26mn 59s
Bit rate : 3 811 Kbps
Width : 1 920 pixels
Height : 1 080 pixels
Display aspect ratio : 16:9
Frame rate mode : Constant
Frame rate : 29.970 fps
Color space : YUV
Chroma subsampling : 4:2:0
Bit depth : 8 bits
Scan type : Progressive
Bits/(Pixel*Frame) : 0.061
Stream size : 736 MiB (96%)
Writing library : x264 core 142 r2479 dd79a61
Encoding settings : cabac=1 / ref=1 / deblock=1:0:0 / analyse=0x1:0x111 / me=hex / subme=2 / psy=1 / psy_rd=1.00:0.00 / mixed_ref=0 / me_range=16 / chroma_me=1 / trellis=0 / 8x8dct=0 / cqm=0 / deadzone=21,11 / fast_pskip=1 / chroma_qp_offset=0 / threads=12 / lookahead_threads=4 / sliced_threads=0 / nr=0 / decimate=1 / interlaced=0 / bluray_compat=0 / constrained_intra=0 / bframes=3 / b_pyramid=2 / b_adapt=1 / b_bias=0 / direct=1 / weightb=1 / open_gop=0 / weightp=1 / keyint=300 / keyint_min=30 / scenecut=40 / intra_refresh=0 / rc_lookahead=10 / rc=crf / mbtree=1 / crf=20.0 / qcomp=0.60 / qpmin=0 / qpmax=69 / qpstep=4 / vbv_maxrate=20000 / vbv_bufsize=25000 / crf_max=0.0 / nal_hrd=none / filler=0 / ip_ratio=1.40 / aq=1:1.00
Encoded date : UTC 2016-08-26 16:34:40
Tagged date : UTC 2016-08-26 16:34:40
Color primaries : BT.709-5, BT.1361, IEC 61966-2-4, SMPTE RP177
Transfer characteristics : BT.709-5, BT.1361
Matrix coefficients : BT.709-5, BT.1361, IEC 61966-2-4 709, SMPTE RP177

Audio
ID : 2
Format : AAC
Format/Info : Advanced Audio Codec
Format profile : LC
Codec ID : 40
Duration : 26mn 59s
Bit rate mode : Variable
Bit rate : 160 Kbps
Channel(s) : 2 channels
Channel positions : Front: L R
Sampling rate : 48.0 KHz
Compression mode : Lossy
Stream size : 31.0 MiB (4%)
Title : Stereo
Language : English
Encoded date : UTC 2016-08-26 16:34:40
Tagged date : UTC 2016-08-26 16:34:40

Categories:
Size: 767.91 MB
Duration:
Video:
Codec:
Added On: 2016-08-27
Screens Preview
Links Download
Reddit user Liz_103 – Tail + Three Bad Dragon Dildos + Lactation + Fisting – (Her longest and newest video so far) – 1080P – Amateur ultima modidfica: 2016-09-24T03:12:02+00:00 da theteenhome