Descrition

My Dirty Hobby – Schnuggie91 – Perverses Fickoutfit! Both holes used simultaneously! – 1080P

On all fours she crawls in front of you on the floor along – just wearing this coat and leather Fickoutfit. Dir stretched towards her plump ass and her little, wet pussy. Your penetrating glances speak for themselves. She wants her tight holes are used simultaneously. With dirty words she asks you to put your big cock first in her tight little ass. Despite the pain consumed face you know that they want to be fucked necessarily in both holes. Can you imagine how tight it feels on your tail when both are used simultaneously?
The scene starts with some solo dildo action, then schnuggie gets dildo double penetrated missionary and doggy style before swallowing the cum at the end.

Schnuggie91

General
Complete name : [MyDirtyHobby] schnuggie91 – Perverses Fickoutfit! Both holes used simultaneously!/schnuggie91 – Perverses Fickoutfit! Both holes used simultaneously!.mp4
Format : MPEG-4
Format profile : Base Media
Codec ID : isom
File size : 174 MiB
Duration : 8mn 33s
Overall bit rate : 2 838 Kbps
Writing application : Lavf57.50.100

Video
ID : 1
Format : AVC
Format/Info : Advanced Video Codec
Format profile : [email protected]
Format settings, CABAC : Yes
Format settings, ReFrames : 4 frames
Codec ID : avc1
Codec ID/Info : Advanced Video Coding
Duration : 8mn 33s
Bit rate : 2 704 Kbps
Width : 1 920 pixels
Height : 1 080 pixels
Display aspect ratio : 16:9
Frame rate mode : Constant
Frame rate : 25.000 fps
Color space : YUV
Chroma subsampling : 4:2:0
Bit depth : 8 bits
Scan type : Progressive
Bits/(Pixel*Frame) : 0.052
Stream size : 166 MiB (95%)
Writing library : x264 core 135 r2345 f0c1c53
Encoding settings : cabac=1 / ref=3 / deblock=1:0:0 / analyse=0x3:0x113 / me=hex / subme=7 / psy=1 / psy_rd=1.00:0.00 / mixed_ref=1 / me_range=16 / chroma_me=1 / trellis=1 / 8x8dct=1 / cqm=0 / deadzone=21,11 / fast_pskip=1 / chroma_qp_offset=-2 / threads=36 / lookahead_threads=6 / sliced_threads=0 / nr=0 / decimate=1 / interlaced=0 / bluray_compat=0 / constrained_intra=0 / bframes=3 / b_pyramid=2 / b_adapt=1 / b_bias=0 / direct=1 / weightb=1 / open_gop=0 / weightp=2 / keyint=250 / keyint_min=25 / scenecut=40 / intra_refresh=0 / rc_lookahead=40 / rc=crf / mbtree=1 / crf=26.0 / qcomp=0.60 / qpmin=0 / qpmax=69 / qpstep=4 / ip_ratio=1.40 / aq=1:1.00

Audio
ID : 2
Format : AAC
Format/Info : Advanced Audio Codec
Format profile : LC
Codec ID : 40
Duration : 8mn 33s
Bit rate mode : Constant
Bit rate : 128 Kbps
Channel(s) : 2 channels
Channel positions : Front: L R
Sampling rate : 44.1 KHz
Compression mode : Lossy
Stream size : 7.84 MiB (5%)

Categories:
Size: 174.75 MB
Duration: 00:08:33
Video: 1920×1080
Codec: h264
Added On: 2016-10-13
Screens Preview
imagebam.com imagebam.com imagebam.com imagebam.com imagebam.com
Links Download
My Dirty Hobby – Schnuggie91 – Perverses Fickoutfit! Both holes used simultaneously! – 1080P – Amateur ultima modidfica: 2016-10-13T01:28:12+00:00 da theteenhome