Descrition

My Dirty Hobby – Mandala – Anal Shooting – Hot Blonde Teen – 720P

This big black guy gets the chance to fuck this hot blonde teen, and he takes it! She starts by taking his pants, grabs that BBC and sucks it really good, then some ball sucking and finally the rimming! Fuck! I love when girls lick my ass.

Then some pussy fucking in missionary and the best part is when he fucks her ass, he switches from missionary to doggystyle and finishes with a big load on her face!

Mandala

General
Complete name : Mandala – Anal Shooting – Hot Blonde Teen.mp4
Format : MPEG-4
Format profile : Base Media
Codec ID : isom
File size : 102 MiB
Duration : 10mn 28s
Overall bit rate mode : Variable
Overall bit rate : 1 357 Kbps
Writing application : Lavf57.25.100

Video
ID : 1
Format : AVC
Format/Info : Advanced Video Codec
Format profile : [email protected]
Format settings, CABAC : Yes
Format settings, ReFrames : 4 frames
Codec ID : avc1
Codec ID/Info : Advanced Video Coding
Duration : 10mn 28s
Bit rate : 1 223 Kbps
Width : 1 280 pixels
Height : 720 pixels
Display aspect ratio : 16:9
Frame rate mode : Constant
Frame rate : 25.000 fps
Color space : YUV
Chroma subsampling : 4:2:0
Bit depth : 8 bits
Scan type : Progressive
Bits/(Pixel*Frame) : 0.053
Stream size : 91.6 MiB (90%)
Writing library : x264 core 135 r2345 f0c1c53
Encoding settings : cabac=1 / ref=3 / deblock=1:0:0 / analyse=0x3:0x113 / me=hex / subme=7 / psy=1 / psy_rd=1.00:0.00 / mixed_ref=1 / me_range=16 / chroma_me=1 / trellis=1 / 8x8dct=1 / cqm=0 / deadzone=21,11 / fast_pskip=1 / chroma_qp_offset=-2 / threads=36 / lookahead_threads=5 / sliced_threads=0 / nr=0 / decimate=1 / interlaced=0 / bluray_compat=0 / constrained_intra=0 / bframes=3 / b_pyramid=2 / b_adapt=1 / b_bias=0 / direct=1 / weightb=1 / open_gop=0 / weightp=2 / keyint=250 / keyint_min=25 / scenecut=40 / intra_refresh=0 / rc_lookahead=40 / rc=crf / mbtree=1 / crf=26.0 / qcomp=0.60 / qpmin=0 / qpmax=69 / qpstep=4 / ip_ratio=1.40 / aq=1:1.00

Audio
ID : 2
Format : AAC
Format/Info : Advanced Audio Codec
Format profile : LC
Codec ID : 40
Duration : 10mn 28s
Bit rate mode : Variable
Bit rate : 128 Kbps
Channel(s) : 2 channels
Channel positions : Front: L R
Sampling rate : 44.1 KHz
Compression mode : Lossy
Stream size : 9.54 MiB (9%)

Categories:
Size: 101.66 MB
Duration: 00:10:28
Video: 1280×720
Codec: h264
Added On: 2016-10-13
Screens Preview
imagebam.com imagebam.com imagebam.com imagebam.com imagebam.com
Links Download
My Dirty Hobby – Mandala – Anal Shooting – Hot Blonde Teen – 720P – Amateur ultima modidfica: 2016-10-13T10:08:00+00:00 da theteenhome