Descrition

ManyVids – Robin Mae – Your Dick Is Nicer Than My Boyfriends (9.2.2016) – 1080P

My idea for a vid is still a BG vid along the lines of a handjob/ blowjob and facial ending. I would want role play like you're an escort or entertainer and he asks if you can have sex because he hasn't cum in a couple days. You tell him no you won't have sex but you can offer to suck him off and jerk him off. He agrees and you begin. Lots of dirty talk ensues and about halfway you ask him if he's ready to cum yet. He tells you he's close and asks where he's allowed to cum. That's when you tell him wherever he wants to cum and he asks if he can cum on your face. You hesitate a bit saying you don't know that but after a couple attempts you give in. That's when you lean back and let him jerk it on your face while you stick your tongue out and take it.

Scene Contains: POV Blowjob to completion.

Robin Mae

General
Complete name : Your Dick Is Nicer Than My Boyfriends.mp4
Format : MPEG-4
Format profile : Base Media / Version 2
Codec ID : mp42
File size : 409 MiB
Duration : 10mn 58s
Overall bit rate mode : Variable
Overall bit rate : 5 210 Kbps
Encoded date : UTC 2036-02-06 06:28:16
Tagged date : UTC 2036-02-06 06:28:16
Writing application : HandBrake 0.10.2 2015060900

Video
ID : 1
Format : AVC
Format/Info : Advanced Video Codec
Format profile : Main@L4.0
Format settings, CABAC : Yes
Format settings, ReFrames : 4 frames
Codec ID : avc1
Codec ID/Info : Advanced Video Coding
Duration : 10mn 58s
Bit rate : 5 000 Kbps
Width : 1 920 pixels
Height : 1 080 pixels
Display aspect ratio : 16:9
Frame rate mode : Variable
Frame rate : 59.940 fps
Minimum frame rate : 59.920 fps
Maximum frame rate : 59.960 fps
Color space : YUV
Chroma subsampling : 4:2:0
Bit depth : 8 bits
Scan type : Progressive
Bits/(Pixel*Frame) : 0.040
Stream size : 395 MiB (97%)
Writing library : x264 core 142 r2479 dd79a61
Encoding settings : cabac=1 / ref=1 / deblock=1:0:0 / analyse=0x1:0x111 / me=hex / subme=2 / psy=1 / psy_rd=1.00:0.00 / mixed_ref=0 / me_range=16 / chroma_me=1 / trellis=0 / 8x8dct=0 / cqm=0 / deadzone=21,11 / fast_pskip=1 / chroma_qp_offset=0 / threads=6 / lookahead_threads=2 / sliced_threads=0 / nr=0 / decimate=1 / interlaced=0 / bluray_compat=0 / constrained_intra=0 / bframes=3 / b_pyramid=2 / b_adapt=1 / b_bias=0 / direct=1 / weightb=1 / open_gop=0 / weightp=1 / keyint=600 / keyint_min=60 / scenecut=40 / intra_refresh=0 / rc_lookahead=10 / rc=abr / mbtree=1 / bitrate=5000 / ratetol=1.0 / qcomp=0.60 / qpmin=0 / qpmax=69 / qpstep=4 / vbv_maxrate=20000 / vbv_bufsize=25000 / nal_hrd=none / filler=0 / ip_ratio=1.40 / aq=1:1.00
Encoded date : UTC 2036-02-06 06:28:16
Tagged date : UTC 2036-02-06 06:28:16
Color primaries : BT.709-5, BT.1361, IEC 61966-2-4, SMPTE RP177
Transfer characteristics : BT.709-5, BT.1361
Matrix coefficients : BT.709-5, BT.1361, IEC 61966-2-4 709, SMPTE RP177

Audio
ID : 2
Format : AAC
Format/Info : Advanced Audio Codec
Format profile : LC
Codec ID : 40
Duration : 10mn 58s
Bit rate mode : Variable
Bit rate : 161 Kbps
Channel(s) : 2 channels
Channel positions : Front: L R
Sampling rate : 48.0 KHz
Compression mode : Lossy
Stream size : 12.6 MiB (3%)
Title : Stereo
Language : English
Encoded date : UTC 2036-02-06 06:28:16
Tagged date : UTC 2036-02-06 06:28:16

Categories:
Size: 408.85 MB
Duration:
Video:
Codec:
Added On: 2016-12-10
Screens Preview
Links Download
ManyVids – Robin Mae – Your Dick Is Nicer Than My Boyfriends (9.2.2016) – 1080P – Amateur ultima modidfica: 2016-12-16T12:26:02+00:00 da theteenhome

Leave a Reply

Your email address will not be published. Required fields are marked *