Descrition

ManyVids – RebeccaStilles69: Daddy JOI – 1080P

Breakdown:I beg “daddy” to stroke and cum for his dirty girl while I demonstrate with toys just how I want him in my every hole! (;

SCENE INCLUDES: Dirty talk on the bathroom floor as RebeccaStilles69 wants to make herself and “daddy” cum. Then gets on her knees, strips, jerks her toy like its a dick, uses the vibrator in her pussy and ass until orgasm. Daddy talk throughout.

RebeccaStilles69

General
Complete name : Daddy-JOI.mp4
Format : MPEG-4
Format profile : Base Media
Codec ID : isom
File size : 361 MiB
Duration : 10mn 45s
Overall bit rate : 4 686 Kbps
Writing application : Lavf57.26.100

Video
ID : 2
Format : MPEG-4 Visual
Format profile : [email protected]
Format settings, BVOP : No
Format settings, QPel : No
Format settings, GMC : No warppoints
Format settings, Matrix : Default (H.263)
Codec ID : 20
Duration : 10mn 45s
Bit rate mode : Constant
Bit rate : 4 610 Kbps
Width : 1 920 pixels
Height : 1 080 pixels
Display aspect ratio : 16:9
Frame rate mode : Constant
Frame rate : 29.917 fps
Color space : YUV
Chroma subsampling : 4:2:0
Bit depth : 8 bits
Scan type : Progressive
Compression mode : Lossy
Bits/(Pixel*Frame) : 0.074
Stream size : 355 MiB (98%)
Writing library : Lavc57.27.100

Audio
ID : 1
Format : AAC
Format/Info : Advanced Audio Codec
Format profile : LC
Codec ID : 40
Duration : 10mn 45s
Bit rate mode : Constant
Bit rate : 69.7 Kbps
Channel(s) : 1 channel
Channel positions : Front: C
Sampling rate : 48.0 KHz
Compression mode : Lossy
Stream size : 5.37 MiB (1%)

Categories:
Size: 360.76 MB
Duration: 00:10:45
Video: 1920×1080
Codec: mpeg4
Added On: 2016-10-09
Screens Preview
imagebam.com imagebam.com imagebam.com imagebam.com imagebam.com
Links Download
ManyVids – RebeccaStilles69: Daddy JOI – 1080P – Amateur ultima modidfica: 2016-10-09T06:50:00+00:00 da theteenhome

Leave a Reply

Your email address will not be published. Required fields are marked *