Descrition

ManyVids.com POV Creampie by Charlotte1996

Charlotte1996
Description
Dirty little slut with a good girl look. Cam model on Chaturbate. I can make you feel good.
Occupations
Webcam Model Student Naughty Girl
Age 1996-10-03 (20)
Measurements 32″ 25″ 36″
Breast Size 32C
Height 5'6″ or 168 cm
Weight 110 lbs

I start by sucking your cock — and at first I can swallow the whole thing, but once you're fully hard it gags me. I like that. I take off my clothes piece by piece as I continue sucking you, making sure to maintain eye contact as best I can. Once you're good and ready to fuck, I turn around and put your cock inside me from behind. I ride you cowgirl and reverse cowgirl and lick my pussy juice off your cock when we switch positions. Finally, when I can feel you start to spasm I tell you to fill me with your cum. After you're done, I spread my pussy so you can see it all dripping out, then I get my fingers wet with your cum and lick it off. And because I'm your good girl, I make sure to clean your cock with my tongue.

General
Complete name : Charlotte1996/POV Creampie HD.mp4
Format : MPEG-4
Format profile : Base Media / Version 2
Codec ID : mp42
File size : 226 MiB
Duration : 12mn 32s
Overall bit rate mode : Variable
Overall bit rate : 2 523 Kbps
Encoded date : UTC 2016-12-15 19:39:07
Tagged date : UTC 2016-12-15 19:39:07

Video
ID : 1
Format : AVC
Format/Info : Advanced Video Codec
Format profile : [email protected]
Format settings, CABAC : No
Format settings, ReFrames : 3 frames
Codec ID : avc1
Codec ID/Info : Advanced Video Coding
Duration : 12mn 32s
Bit rate mode : Variable
Bit rate : 2 395 Kbps
Maximum bit rate : 2 458 Kbps
Width : 1 920 pixels
Height : 1 080 pixels
Display aspect ratio : 16:9
Frame rate mode : Constant
Frame rate : 25.000 fps
Standard : PAL
Color space : YUV
Chroma subsampling : 4:2:0
Bit depth : 8 bits
Scan type : Progressive
Bits/(Pixel*Frame) : 0.046
Stream size : 215 MiB (95%)
Language : English
Encoded date : UTC 2016-12-15 19:39:07
Tagged date : UTC 2016-12-15 19:39:07

Audio
ID : 2
Format : AAC
Format/Info : Advanced Audio Codec
Format profile : LC
Codec ID : 40
Duration : 12mn 32s
Bit rate mode : Variable
Bit rate : 126 Kbps
Maximum bit rate : 276 Kbps
Channel(s) : 2 channels
Channel positions : Front: L R
Sampling rate : 44.1 KHz
Compression mode : Lossy
Stream size : 11.3 MiB (5%)
Language : English
Encoded date : UTC 2016-12-15 19:39:07
Tagged date : UTC 2016-12-15 19:39:07

Categories:
Size: 227.69 MB
Duration: 00:12:32
Video: 1920×1080
Codec: h264
Added On: 2017-02-11
Screens Preview
imagebam.com imagebam.com imagebam.com imagebam.com imagebam.com
Links Download
ManyVids.com POV Creampie by Charlotte1996 – Amateur ultima modidfica: 2017-02-11T13:29:50+00:00 da theteenhome