Descrition

Jeri Lynn – Hitachi Insertion, Horse Dildo Creampie, and Fisting (The live show that got her BANNED from Chaturbate)

Description from ManyVids:

THIS LIVE SHOW LED TO THE BAN OF MY CHATURBATE ACCOUNT!! They don't allow toys over 12 inches, fisting, or insertion of anything that is not a “sex object” (they view hitachis as massagers and not vibrators). My account was banned the following day.–This is a VERY hot recording of a cam show that I performed on 07/03/2016 — The video title says it all but to better describe to you what this is like: INTENSE — A nice and slow hitachi warm up starts us off to get my cunt nice and wet. I take a step further and then use the hitachi to tease my cervix (Hitachi Insertion). Two creampies from my infamous giant horse dildo, lots of fisting (more like pussy punching), then watch my clit turn red as I squirt from my Hitachi. On top of all of these great views, my face looks sexy and passionate as well! I personally am very impressed with how this chaturbate ticket show turned out.

Thank You!

Important News! – Congratulate tsetsu0 for being selected moderator in THIS THREAD to receive 300 credits! Good until 8.27.16 or 500 requests!

Jeri Lynn

General
Complete name : Jeri Lynn – Hitachi Insertion Horse Dildo Creampie and Fisting.mp4
Format : MPEG-4
Format profile : Base Media / Version 2
Codec ID : mp42
File size : 295 MiB
Duration : 22mn 56s
Overall bit rate : 1 801 Kbps

Video
ID : 1
Format : AVC
Format/Info : Advanced Video Codec
Format profile : [email protected]
Format settings, CABAC : No
Format settings, ReFrames : 1 frame
Format settings, GOP : M=1, N=15
Codec ID : avc1
Codec ID/Info : Advanced Video Coding
Duration : 22mn 56s
Source duration : 22mn 56s
Bit rate mode : Variable
Bit rate : 1 668 Kbps
Width : 960 pixels
Height : 720 pixels
Display aspect ratio : 4:3
Frame rate mode : Constant
Frame rate : 29.970 fps
Color space : YUV
Chroma subsampling : 4:2:0
Bit depth : 8 bits
Scan type : Progressive
Bits/(Pixel*Frame) : 0.081
Stream size : 274 MiB (93%)
Source stream size : 274 MiB

Audio
ID : 2
Format : AAC
Format/Info : Advanced Audio Codec
Format profile : LC
Codec ID : 40
Duration : 22mn 56s
Bit rate mode : Constant
Bit rate : 128 Kbps
Channel(s) : 2 channels
Channel positions : Front: L R
Sampling rate : 48.0 KHz
Compression mode : Lossy
Stream size : 21.3 MiB (7%)

Categories:
Size: 295.46 MB
Duration:
Video:
Codec:
Added On: 2016-08-22
Screens Preview
Links Download
Jeri Lynn – Hitachi Insertion, Horse Dildo Creampie, and Fisting (The live show that got her BANNED from Chaturbate) – Amateur ultima modidfica: 2016-09-24T07:12:02+00:00 da theteenhome