Descrition

Hot Amateur British Girl With Nice Tits Gets Fucked!

Unfortunately, I don't know this girl's name. Maybe one of you will recognize her. She looks young, but she's legal according to the boxcover of the movie this scene is from. She's actually on the cover itself. This is a very hot scene! I only wish I had more of her.

Scene starts with the couple kissing on bed. The guy sucks her tits and rubs her pussy. She sucks his cock in return. Her tight young pussy is fucked in spoon, reverse cowgirl, cowgirl, doggy, and mish. He cums on her stomach and she gives him some post head afterward. The highlight of the scene for me was watching her tits and hip grinding in reverse cowgirl. This is one yummy Brit!

General
Complete name : Hot British Girl – Filthy Fuckers First Amateurs (Scene 4).mp4
Format : MPEG-4
Format profile : Base Media / Version 2
Codec ID : mp42
File size : 182 MiB
Duration : 21mn 5s
Overall bit rate mode : Variable
Overall bit rate : 1 204 Kbps
Encoded date : UTC 2010-04-06 07:54:30
Tagged date : UTC 2010-04-06 11:27:29
Writing application : HandBrake 0.9.3 2008112300

Video
ID : 1
Format : AVC
Format/Info : Advanced Video Codec
Format profile : [email protected]
Format settings, CABAC : Yes
Format settings, ReFrames : 3 frames
Codec ID : avc1
Codec ID/Info : Advanced Video Coding
Duration : 21mn 4s
Bit rate mode : Variable
Bit rate : 1 136 Kbps
Width : 624 pixels
Height : 480 pixels
Display aspect ratio : 1.300
Frame rate mode : Variable
Frame rate : 29.970 fps
Minimum frame rate : 14.980 fps
Maximum frame rate : 30.000 fps
Color space : YUV
Chroma subsampling : 4:2:0
Bit depth : 8 bits
Scan type : Progressive
Bits/(Pixel*Frame) : 0.127
Stream size : 171 MiB (94%)
Writing library : x264 core 65
Encoding settings : cabac=1 / ref=3 / deblock=1:0:0 / analyse=0x3:0x133 / me=umh / subme=9 / psy_rd=1.0:1.0 / mixed_ref=1 / me_range=16 / chroma_me=1 / trellis=1 / 8x8dct=1 / cqm=0 / deadzone=21,11 / chroma_qp_offset=-4 / threads=6 / nr=150 / decimate=1 / mbaff=0 / bframes=6 / b_pyramid=1 / b_adapt=1 / b_bias=0 / direct=3 / wpredb=1 / keyint=30 / keyint_min=16 / scenecut=40(pre) / rc=2pass / bitrate=1136 / ratetol=1.0 / qcomp=0.60 / qpmin=10 / qpmax=51 / qpstep=4 / cplxblur=20.0 / qblur=0.5 / ip_ratio=1.40 / pb_ratio=1.30 / aq=1:1.00
Language : English
Encoded date : UTC 2010-04-06 07:54:30
Tagged date : UTC 2010-04-06 11:27:29
Color primaries : BT.601-6 525, BT.1358 525, BT.1700 NTSC, SMPTE 170M
Transfer characteristics : BT.709-5, BT.1361
Matrix coefficients : BT.601-6 525, BT.1358 525, BT.1700 NTSC, SMPTE 170M

Audio
ID : 2
Format : AAC
Format/Info : Advanced Audio Codec
Format profile : LC
Codec ID : 40
Duration : 21mn 5s
Bit rate mode : Variable
Bit rate : 64.0 Kbps
Maximum bit rate : 77.0 Kbps
Channel(s) : 2 channels
Channel positions : Front: L R
Sampling rate : 22.05 KHz
Compression mode : Lossy
Stream size : 9.65 MiB (5%)
Encoded date : UTC 2010-04-06 07:54:30
Tagged date : UTC 2010-04-06 11:26:54

Categories:
Size: 181.62 MB
Duration: 00:21:04
Video: 624×480
Codec: h264
Added On: 2016-10-09
Screens Preview
imagebam.com imagebam.com imagebam.com imagebam.com imagebam.com
Links Download
Hot Amateur British Girl With Nice Tits Gets Fucked! – Amateur ultima modidfica: 2016-10-09T08:10:00+00:00 da theteenhome