Descrition

GirlsDoPorn – E388 20 Years Old – 720P

Updated on Friday, October 07, 2016
Featuring: Hottest Nanny

This tanned beauty is the hottest nanny, who you might remember from her very first update not too long ago, and this time around she's taking on not one cock but two at the same time! She's had a threesome before but this is her first time doing it on camera, that's for sure…Girls Do Porn always has the hottest amateur hotties on the net and this nanny is a perfect example of it, she's a 20 year old stunner with big tits, long tan legs and a perfect tight pink pussy that just begs for dick (whether it's one or two haha)!

This horny sexy beauty gets right to it after her initial interview, she knows how things work on GDP and gets right on her knees to do a little back-and-forth blowjob with these two lucky dudes and then hops on the bed to get that pussy filled up with dick and her mouth wrapped around a cock at the same time!

Some girls just get right into a hot steamy threesome and this nanny is one of em, sucking and fucking whatever dick is in reach and getting more and more turned on as she rides and slurps and sucks and fucks until finally getting a nice big double facial to see her on her way. It takes a special kind of girl to get a second shoot at Girls Do Porn and I think you'll see just how special this hottie is as she takes on these two dicks…maybe she'll even be back for round three, we'll just have to wait and see!
Scene Contains: FMM threesome, Blowjob and Handjob at same time, Cowgirl and Reverse Cowgirl, Doggy Style and Missionary too.

Amateur

General
Complete name : [GirlsDoPorn] – E388 20 Years Old – [720p].mp4
Format : MPEG-4
Format profile : Base Media / Version 2
Codec ID : mp42
File size : 1.94 GiB
Duration : 47mn 51s
Overall bit rate : 5 806 Kbps
Encoded date : UTC 2016-10-07 08:25:55
Tagged date : UTC 2016-10-07 08:25:55

Video
ID : 2
Format : AVC
Format/Info : Advanced Video Codec
Format profile : [email protected]
Format settings, CABAC : Yes
Format settings, ReFrames : 3 frames
Codec ID : avc1
Codec ID/Info : Advanced Video Coding
Duration : 47mn 51s
Bit rate : 5 686 Kbps
Width : 1 280 pixels
Height : 720 pixels
Display aspect ratio : 16:9
Frame rate mode : Constant
Frame rate : 29.970 fps
Color space : YUV
Chroma subsampling : 4:2:0
Bit depth : 8 bits
Scan type : Progressive
Bits/(Pixel*Frame) : 0.206
Stream size : 1.90 GiB (98%)
Writing library : x264 core 142 r2431 a5831aa
Encoding settings : cabac=1 / ref=3 / deblock=1:0:0 / analyse=0x3:0x113 / me=umh / subme=6 / psy=1 / psy_rd=1.00:0.00 / mixed_ref=1 / me_range=16 / chroma_me=1 / trellis=1 / 8x8dct=1 / cqm=0 / deadzone=21,11 / fast_pskip=1 / chroma_qp_offset=-2 / threads=2 / lookahead_threads=1 / sliced_threads=0 / nr=0 / decimate=1 / interlaced=0 / bluray_compat=0 / constrained_intra=0 / bframes=0 / weightp=2 / keyint=480 / keyint_min=24 / scenecut=40 / intra_refresh=0 / rc_lookahead=40 / rc=crf / mbtree=1 / crf=17.0 / qcomp=0.60 / qpmin=0 / qpmax=69 / qpstep=4 / vbv_maxrate=22500 / vbv_bufsize=24997 / crf_max=0.0 / nal_hrd=none / filler=0 / ip_ratio=1.60 / aq=1:1.00
Language : English
Encoded date : UTC 2016-10-07 08:25:55
Tagged date : UTC 2016-10-07 08:25:55

Audio
ID : 1
Format : AAC
Format/Info : Advanced Audio Codec
Format profile : LC
Codec ID : 40
Duration : 47mn 51s
Bit rate mode : Constant
Bit rate : 112 Kbps
Channel(s) : 2 channels
Channel positions : Front: L R
Sampling rate : 48.0 KHz
Compression mode : Lossy
Stream size : 38.3 MiB (2%)
Language : English
Encoded date : UTC 2016-10-07 08:25:55
Tagged date : UTC 2016-10-07 08:25:55

/>

Categories:
Size: 1.94 GB
Duration: 00:47:51
Video: 1280×720
Codec: h264
Added On: 2016-10-09
Screens Preview
imagebam.com imagebam.com imagebam.com imagebam.com imagebam.com
Links Download
GirlsDoPorn – E388 20 Years Old – 720P – Amateur ultima modidfica: 2016-10-09T12:20:03+00:00 da theteenhome