Descrition

GirlsDoPorn – E383 – 20 years old – Andria – 576P Re-Encode

Typical GDP setup with a hot brunette. Interview where girl mentions she has a boyfriend who only knows she's doing a “modeling gig”. She's a nanny and her favorite position is doggystyle. Positions go bj, missionary, girl on top with anal fingering, good boob grabbing, bj, doggystyle, reverse cowgirl, facial.

Andria

General
Complete name : girlsdoporn – E383/[GirlsDoPorn] – E383 20 Years Old (03.09.2016) [576p].mp4
Format : MPEG-4
Format profile : Base Media / Version 2
Codec ID : mp42
File size : 528 MiB
Duration : 45mn 43s
Overall bit rate mode : Variable
Overall bit rate : 1 616 Kbps
Encoded date : UTC 2016-10-19 06:45:30
Tagged date : UTC 2016-10-19 07:28:23
Writing application : HandBrake 0.9.8 2012071800

Video
ID : 1
Format : AVC
Format/Info : Advanced Video Codec
Format profile : [email protected]
Format settings, CABAC : Yes
Format settings, ReFrames : 4 frames
Codec ID : avc1
Codec ID/Info : Advanced Video Coding
Duration : 45mn 42s
Bit rate mode : Variable
Bit rate : 1 484 Kbps
Width : 1 024 pixels
Height : 576 pixels
Display aspect ratio : 16:9
Frame rate mode : Constant
Frame rate : 29.970 fps
Color space : YUV
Chroma subsampling : 4:2:0
Bit depth : 8 bits
Scan type : Progressive
Bits/(Pixel*Frame) : 0.084
Stream size : 485 MiB (92%)
Writing library : x264 core 120
Encoding settings : cabac=1 / ref=3 / deblock=1:0:0 / analyse=0x3:0x113 / me=hex / subme=7 / psy=1 / psy_rd=1.00:0.00 / mixed_ref=1 / me_range=16 / chroma_me=1 / trellis=1 / 8x8dct=1 / cqm=0 / deadzone=21,11 / fast_pskip=1 / chroma_qp_offset=-2 / threads=12 / sliced_threads=0 / nr=0 / decimate=1 / interlaced=0 / bluray_compat=0 / constrained_intra=0 / bframes=3 / b_pyramid=2 / b_adapt=2 / b_bias=0 / direct=1 / weightb=1 / open_gop=0 / weightp=2 / keyint=300 / keyint_min=30 / scenecut=40 / intra_refresh=0 / rc_lookahead=50 / rc=crf / mbtree=1 / crf=21.0 / qcomp=0.60 / qpmin=3 / qpmax=69 / qpstep=4 / ip_ratio=1.40 / aq=1:1.00
Encoded date : UTC 2016-10-19 06:45:30
Tagged date : UTC 2016-10-19 07:28:23
Color primaries : BT.709-5, BT.1361, IEC 61966-2-4, SMPTE RP177
Transfer characteristics : BT.709-5, BT.1361
Matrix coefficients : BT.709-5, BT.1361, IEC 61966-2-4 709, SMPTE RP177

Audio
ID : 2
Format : AAC
Format/Info : Advanced Audio Codec
Format profile : LC
Codec ID : 40
Duration : 45mn 43s
Bit rate mode : Variable
Bit rate : 127 Kbps
Maximum bit rate : 138 Kbps
Channel(s) : 2 channels
Channel positions : Front: L R
Sampling rate : 48.0 KHz
Compression mode : Lossy
Stream size : 41.5 MiB (8%)
Encoded date : UTC 2016-10-19 06:45:30
Tagged date : UTC 2016-10-19 07:28:23

Categories:
Size: 529.06 MB
Duration: 00:45:42
Video: 1024×576
Codec: h264
Added On: 2016-11-05
Screens Preview
imagebam.com imagebam.com imagebam.com imagebam.com imagebam.com
Links Download
GirlsDoPorn – E383 – 20 years old – Andria – 576P Re-Encode – Amateur ultima modidfica: 2016-11-05T04:55:56+00:00 da theteenhome