Descrition

GirlsDoPorn – 22 Years Old (E391 – 29.10.2016) – 720P

So it's been about a year since this gorgeous Brazilian girl shot her very first adult video but I guess she had a hankering for some more deep dicking action so she headed back for more fun! This girl is seriously smokin hot, too; she's got a supermodel caliber face and a slender sexy body with big perfect tits and a great ass…but this is Girls Do Porn, so you're guaranteed to get a winner haha! After this skinny hottie reintroduces herself down she goes onto her knees and she goes to work on that cock, sucking the guy off and then undressing to reacquaint us with that flawless body of hers…this girl is seriously stunning. Soon she's on her back with those long legs spread wide open to get fucked, moaning as the guy pounds her sweet hole and then hopping up on top to ride the dude's dick before bending over with that perfect ass in the air to take a doggystyle pussy pounding! As you might already know, when a girl returns to Girls Do Porn she always tries something new to keep it fresh, and for this sexy chick that means taking the dude's load in her snatch for a nice creampie finish.

Scene contains: Blowjob, Missionary, Cowgirl, Doggystyle and a Creampie.

Brazilian Amateur

General
Complete name : [GirlsDoPorn] 22 Years Old (E391 – 29.10.2016) rq (720p).mp4
Format : MPEG-4
Format profile : Base Media / Version 2
Codec ID : mp42
File size : 1.84 GiB
Duration : 42mn 34s
Overall bit rate mode : Variable
Overall bit rate : 6 181 Kbps
Encoded date : UTC 2016-10-29 01:11:08
Tagged date : UTC 2016-10-29 01:11:23
?TIM : 00;00;00;00
?TSC : 30000
?TSZ : 1001

Video
ID : 1
Format : AVC
Format/Info : Advanced Video Codec
Format profile : [email protected]
Format settings, CABAC : Yes
Format settings, ReFrames : 3 frames
Codec ID : avc1
Codec ID/Info : Advanced Video Coding
Duration : 42mn 34s
Bit rate : 5 859 Kbps
Width : 1 280 pixels
Height : 720 pixels
Display aspect ratio : 16:9
Frame rate mode : Constant
Frame rate : 29.970 fps
Standard : NTSC
Color space : YUV
Chroma subsampling : 4:2:0
Bit depth : 8 bits
Scan type : Progressive
Bits/(Pixel*Frame) : 0.212
Stream size : 1.74 GiB (95%)
Language : English
Encoded date : UTC 2016-10-29 01:11:08
Tagged date : UTC 2016-10-29 01:11:08
Color primaries : BT.709-5, BT.1361, IEC 61966-2-4, SMPTE RP177
Transfer characteristics : BT.709-5, BT.1361
Matrix coefficients : BT.709-5, BT.1361, IEC 61966-2-4 709, SMPTE RP177

Audio
ID : 2
Format : AAC
Format/Info : Advanced Audio Codec
Format profile : LC
Codec ID : 40
Duration : 42mn 34s
Source duration : 42mn 34s
Bit rate mode : Variable
Bit rate : 317 Kbps
Maximum bit rate : 411 Kbps
Channel(s) : 2 channels
Channel positions : Front: L R
Sampling rate : 48.0 KHz
Compression mode : Lossy
Stream size : 96.7 MiB (5%)
Source stream size : 96.7 MiB
Language : English
Encoded date : UTC 2016-10-29 01:11:08
Tagged date : UTC 2016-10-29 01:11:08

Categories:
Size: 1.84 GB
Duration: 00:42:34
Video: 1280×720
Codec: h264
Added On: 2016-11-05
Screens Preview
imagebam.com imagebam.com imagebam.com imagebam.com imagebam.com
Links Download
GirlsDoPorn – 22 Years Old (E391 – 29.10.2016) – 720P – Amateur ultima modidfica: 2016-11-05T05:35:56+00:00 da theteenhome