Descrition

GirlsDoPorn 18 Years Old E404 (28.01.2017) 720P

Unknown Amateur

She gives a blowjob and gets fucked in missionary, reverse cowgirl, cowgirl and doggy. Ends with a facial.

General
Complete name : [GirlsDoPorn] 18 Years Old E404 (28.01.2017) 720p/[GirlsDoPorn] 18 Years Old E404 (28.01.2017) 720p.mp4
Format : MPEG-4
Format profile : Base Media
Codec ID : isom
File size : 562 MiB
Duration : 42mn 41s
Overall bit rate mode : Variable
Overall bit rate : 1 840 Kbps
Writing application : Lavf57.23.100

Video
ID : 1
Format : AVC
Format/Info : Advanced Video Codec
Format profile : [email protected]
Format settings, CABAC : Yes
Format settings, ReFrames : 4 frames
Codec ID : avc1
Codec ID/Info : Advanced Video Coding
Duration : 42mn 41s
Bit rate : 1 795 Kbps
Width : 1 280 pixels
Height : 720 pixels
Display aspect ratio : 16:9
Frame rate mode : Constant
Frame rate : 30.000 fps
Color space : YUV
Chroma subsampling : 4:2:0
Bit depth : 8 bits
Scan type : Progressive
Bits/(Pixel*Frame) : 0.065
Stream size : 548 MiB (98%)
Writing library : x264 core 148 r2665 a01e339
Encoding settings : cabac=1 / ref=3 / deblock=1:-2:-2 / analyse=0x1:0x111 / me=hex / subme=7 / psy=1 / psy_rd=1.00:0.25 / mixed_ref=1 / me_range=16 / chroma_me=1 / trellis=1 / 8x8dct=0 / cqm=0 / deadzone=6,6 / fast_pskip=1 / chroma_qp_offset=-4 / threads=8 / lookahead_threads=1 / sliced_threads=0 / nr=0 / decimate=0 / interlaced=0 / bluray_compat=0 / constrained_intra=0 / bframes=3 / b_pyramid=2 / b_adapt=1 / b_bias=0 / direct=1 / weightb=1 / open_gop=0 / weightp=2 / keyint=250 / keyint_min=50 / scenecut=40 / intra_refresh=0 / rc_lookahead=40 / rc=crf / mbtree=1 / crf=20.0 / qcomp=0.80 / qpmin=0 / qpmax=69 / qpstep=4 / vbv_maxrate=1800 / vbv_bufsize=3600 / crf_max=0.0 / nal_hrd=none / filler=0 / ip_ratio=1.10 / aq=1:0.50
Language : English
Tagged date : UTC 2017-01-28 07:27:46

Audio
ID : 2
Format : AAC
Format/Info : Advanced Audio Codec
Format profile : LC
Codec ID : 40
Duration : 42mn 41s
Source duration : 42mn 41s
Bit rate mode : Variable
Bit rate : 41.3 Kbps
Maximum bit rate : 64.0 Kbps
Channel(s) : 1 channel
Channel positions : Front: C
Sampling rate : 24.0 KHz
Compression mode : Lossy
Stream size : 12.6 MiB (2%)
Source stream size : 12.6 MiB
Language : English
Tagged date : UTC 2017-01-28 07:27:46

Categories:
Size: 564.10 MB
Duration: 00:42:41
Video: 1280×720
Codec: h264
Added On: 2017-02-01
Screens Preview
imagebam.com imagebam.com imagebam.com imagebam.com imagebam.com
Links Download
GirlsDoPorn 18 Years Old E404 (28.01.2017) 720P – Amateur ultima modidfica: 2017-02-01T14:35:51+00:00 da theteenhome