Descrition

Chaturbate – Siswet19 – 4.18.16 – SD

Siswet19 is an incredibly cute blonde Dutch girl with a lovely body. She lubes up her asshole to prepare to be anally reamed by a huge dildo and then lays on her side to insert it into her asshole, getting all of it in! Siswet then rides the massive dildo cowgirl/reverse-cowgirl style.

Siswet19

General
Complete name : [Chaturbate] Siswet19 (18th April 2016)/siswet19_180416_0207_female_chaturbate.mp4
Format : MPEG-4
Format profile : Base Media
Codec ID : isom
File size : 112 MiB
Duration : 14mn 43s
Overall bit rate : 1 060 Kbps
Writing application : Lavf56.36.100

Video
ID : 1
Format : AVC
Format/Info : Advanced Video Codec
Format profile : [email protected]
Format settings, CABAC : Yes
Format settings, ReFrames : 4 frames
Codec ID : avc1
Codec ID/Info : Advanced Video Coding
Duration : 14mn 43s
Bit rate : 1 021 Kbps
Width : 640 pixels
Height : 480 pixels
Display aspect ratio : 4:3
Frame rate mode : Constant
Frame rate : 30.000 fps
Color space : YUV
Chroma subsampling : 4:2:0
Bit depth : 8 bits
Scan type : Progressive
Bits/(Pixel*Frame) : 0.111
Stream size : 107 MiB (96%)
Writing library : x264 core 148 r2 e86f3a1
Encoding settings : cabac=1 / ref=1 / deblock=1:-1:-1 / analyse=0x3:0x113 / me=hex / subme=2 / psy=1 / psy_rd=1.00:0.15 / mixed_ref=0 / me_range=16 / chroma_me=1 / trellis=0 / 8x8dct=1 / cqm=0 / deadzone=21,11 / fast_pskip=1 / chroma_qp_offset=0 / threads=16 / lookahead_threads=3 / sliced_threads=0 / nr=0 / decimate=1 / interlaced=0 / bluray_compat=0 / constrained_intra=0 / bframes=3 / b_pyramid=2 / b_adapt=1 / b_bias=0 / direct=1 / weightb=1 / open_gop=0 / weightp=1 / keyint=250 / keyint_min=25 / scenecut=40 / intra_refresh=0 / rc_lookahead=10 / rc=crf / mbtree=1 / crf=16.0 / qcomp=0.60 / qpmin=0 / qpmax=69 / qpstep=4 / ip_ratio=1.40 / aq=1:1.00

Audio
ID : 2
Format : AAC
Format/Info : Advanced Audio Codec
Format profile : LC
Codec ID : 40
Duration : 14mn 43s
Bit rate mode : Constant
Bit rate : 34.9 Kbps
Channel(s) : 1 channel
Channel positions : Front: C
Sampling rate : 16.0 KHz
Compression mode : Lossy
Stream size : 3.68 MiB (3%)

Categories:
Size: 112.48 MB
Duration: 00:14:43
Video: 640×480
Codec: h264
Added On: 2016-11-05
Screens Preview
imagebam.com imagebam.com imagebam.com imagebam.com imagebam.com
Links Download
Chaturbate – Siswet19 – 4.18.16 – SD – Amateur ultima modidfica: 2016-11-05T05:47:55+00:00 da theteenhome

Leave a Reply

Your email address will not be published. Required fields are marked *